#TITLE:Maria;
#SUBTITLE:;
#ARTIST:Kim Ah Joong;
#TITLETRANSLIT:;
#SUBTITLETRANSLIT:;
#ARTISTTRANSLIT:Kim Ah Joong;
#CREDIT:;
#BANNER:Maria-bn.png;
#BACKGROUND:Maria-bg.png;
#LYRICSPATH:;
#CDTITLE:pm4cd.png;
#MUSIC:Maria.mp3;
#OFFSET:-0.020;
#SAMPLESTART:43.230;
#SAMPLELENGTH:20.000;
#SELECTABLE:YES;
#BPMS:0.000=160.020;
#STOPS:;
#BGCHANGES:0.000=Maria.avi=1.000=1=1=0,
490.250=Maria-bg.png=1.000=0=0=1,
99999=-nosongbg-=1.000=0=0=0 // don't automatically add -songbackground-
;
// cache tags:
#FIRSTBEAT:0.250;
#LASTBEAT:490.250;
#SONGFILENAME:Songs/Music V.I.P ^_^/Maria/Maria.sm;
#HASMUSIC:1;
#HASBANNER:1;
#MUSICLENGTH:187.774;
// end cache tags

//---------------dance-single - ----------------
#NOTES:
     dance-single:
     :
     Hard:
     11:
     1.000,1.000,1.000,0.138,1.000,832.000,462.000,26.000,0.000,76.000:
0000
0101
0000
0000
0000
0101
0000
0000
0000
0101
0000
0000
0000
0101
0000
0000
,
0000
0101
0000
0000
0000
0101
0000
0000
0000
1001
0000
0000
0000
1001
0000
0000
,
0000
1010
0000
0000
0000
1010
0000
0000
0000
1010
0000
0000
0000
1010
0000
0000
,
0000
1010
0000
0000
0000
1010
0000
0000
0000
1001
0000
0100
0000
0011
0000
0000
,
0000
0101
0000
0000
0000
0101
0000
0000
0000
0101
0000
0000
0000
0101
0000
0000
,
0000
0101
0000
0000
0000
0101
0000
0000
0000
0110
0000
0000
0000
0110
0000
0000
,
0000
1010
0000
0000
0000
1010
0000
0000
0000
1010
0000
0000
0000
1010
0000
0000
,
0000
1010
0000
0000
0000
1010
0000
0000
0000
0110
0000
0000
0000
0110
0000
0000
,
0000
0101
0000
0000
0000
0101
0000
0000
0000
0101
0000
0000
0000
0101
0000
0000
,
0000
0101
0000
0000
0000
0101
0000
0000
0000
0110
0000
0000
0000
0110
0000
0000
,
0000
1010
0000
0000
0000
1010
0000
0000
0000
1010
0000
0000
0000
1010
0000
0000
,
0000
1010
0000
0000
0000
1010
0000
0000
0000
1010
0000
1000
0000
0011
0000
0000
,
0000
0101
0000
0000
0000
0101
0000
0000
0000
0101
0000
0100
0000
0011
0000
0000
,
0000
0110
0000
0000
0000
0110
0000
0010
0000
1001
0000
0001
0000
0110
0000
0000
,
0000
1010
0000
0000
0000
1010
0000
0000
0000
1010
0000
1000
0000
0110
0000
0000
,
0000
1010
0000
0000
0000
1010
0000
0010
0000
0101
0000
0001
0000
0110
0000
0000
,
0000
0101
0000
0000
0000
0101
0000
0000
0000
0101
0000
0100
0000
0011
0000
0000
,
0000
0110
0000
0000
0000
0110
0000
0010
0000
1001
0000
1000
0000
0101
0000
0000
,
0000
1010
0000
0000
0000
1010
0000
0000
0000
1010
0000
1000
0000
0110
0000
0000
,
0000
1010
0000
0000
0000
1010
0000
0001
0000
0110
0000
1000
0000
0110
0000
0000
,
0000
1001
0000
0000
0000
1001
0000
0000
0000
1001
0000
1000
0000
0101
0000
0000
,
0000
0110
0000
0000
0000
0110
0000
0100
0000
1001
0000
0001
0000
1100
0000
0000
,
0000
1010
0000
0000
0000
1010
0000
0000
0000
1010
0000
0010
0000
1100
0000
0000
,
0000
1001
0000
0000
0000
1001
0000
0001
0000
1010
0000
1000
0000
0110
0000
0000
,
0000
1001
0000
0000
0000
1001
0000
0000
0000
1001
0000
0001
0000
1010
0000
0000
,
0000
0110
0000
0000
0000
0110
0000
0010
0000
1100
0000
0100
0000
0011
0000
0000
,
0000
1010
0000
0000
0000
0001
0000
0000
0000
1000
0000
1000
0000
0001
0000
0000
,
0000
1110
0000
0000
0000
0101
0000
0000
0000
1010
0000
1010
0000
0101
0000
0000
,
0000
1000
0000
0011
0000
0000
0000
0110
0000
0000
0000
1001
0000
0100
0010
0100
,
0010
0002
0000
0000
0000
1010
0000
0000
0000
1000
0000
1000
0000
0013
0000
0000
,
0000
2001
0000
0000
0000
0101
0000
0000
0000
0001
0000
0001
0000
3100
0000
0000
,
0000
1002
0000
0000
0000
1010
0000
0000
0000
1000
0000
1000
0000
0013
0000
0000
,
0000
0001
0000
0001
0000
1010
0000
1000
0000
0001
0000
0001
0000
1000
0000
0010
,
0000
1002
0000
0000
0000
1010
0000
0000
0000
1000
0000
1000
0000
0013
0000
0000
,
0000
0201
0000
0000
0000
1001
0000
0000
0000
0001
0000
0001
0000
1300
0000
0000
,
0000
1020
0000
0000
0000
1001
0000
0000
0000
1000
0000
1000
0000
0031
0000
0000
,
0000
1000
0000
1000
0000
0001
0000
0001
0000
0100
0000
0100
0000
0001
0010
0001
,
0010
2001
0000
0000
0000
0111
0000
0000
0000
0001
0000
0001
0000
0110
0000
0000
,
0000
0001
0000
0000
0000
0101
0000
0000
0000
0001
0000
0001
0000
3110
0000
0000
,
0000
1012
0000
0000
0000
0110
0000
0000
0000
1000
0000
1000
0000
0113
0000
0000
,
0000
1001
0000
0001
0000
1010
0000
1000
0000
0001
0000
0001
0000
1010
0000
0001
,
0000
1002
0000
0000
0000
1010
0000
0000
0000
0100
0000
0100
0000
1013
0000
0000
,
0000
2001
0000
0100
0000
0001
0000
0010
0000
0100
0000
0100
0000
3001
0000
0010
,
0000
1001
0000
0100
0000
0011
0000
0100
0000
1001
0000
0001
0000
1100
0000
0001
,
0000
1010
0000
1010
0000
0101
0000
0101
0000
1001
0000
1001
0000
0110
1001
0110
,
1001
0110
0000
0000
0000
0110
0000
0000
0000
0110
0000
0010
0000
1101
0000
0000
,
0000
1010
0000
0000
0000
1010
0000
0010
0000
1001
0000
1000
0000
1101
0000
0000
,
0000
1001
0000
0000
0000
1001
0000
0000
0000
1001
0000
0001
0000
1001
0000
0000
,
0000
1001
0000
0000
0000
1001
0000
1000
0000
0101
0000
0100
0000
1011
0000
0000
,
0000
0110
0000
0000
0000
0110
0000
0000
0000
0110
0000
0100
0000
1011
0000
0000
,
0000
1010
0000
0000
0000
1010
0000
1000
0000
0101
0000
0001
0000
1010
0000
0000
,
0000
1001
0000
0000
0000
1101
0000
0000
0000
1001
0000
1000
0000
0101
0000
0000
,
0000
1221
0000
1001
0000
0000
0000
1001
0000
0000
0000
1001
0000
1331
0000
1001
,
0000
1001
0000
0100
0000
0011
0000
1000
0000
0110
0000
0110
0000
1001
0000
0010
,
0000
1001
0000
0100
0000
0011
0000
1000
0000
0110
0000
0110
0000
1001
0000
0010
,
0000
1001
0000
0100
0000
1001
0000
0010
0000
1100
0000
1100
0000
0011
0000
0100
,
0000
1001
0000
1000
0000
0110
0000
0100
0000
1001
0000
1000
0000
0110
0000
0100
,
0000
1001
0000
0100
0000
0011
0000
1000
0000
0110
0000
0110
0000
1001
0000
0100
,
0000
1001
0000
0100
0000
1010
0000
0001
0000
0110
0000
0110
0000
1001
0000
0100
,
0000
1001
0000
0100
0000
1010
0000
0001
0000
1100
0000
1100
0000
0011
0000
0100
,
0000
1010
0000
0010
0000
0101
0000
0001
0000
1010
0000
0100
1000
0010
0001
1000
,
0100
2001
0000
0010
0000
0100
0000
0001
0000
0100
0000
0001
0000
0101
0000
0010
,
0000
0001
0000
0010
0000
0100
0000
0001
0000
0010
0000
0010
0000
3101
0000
0001
,
0000
1010
0000
0100
0000
0011
0000
1000
0000
0101
0000
0101
0000
1010
0000
0001
,
0000
1010
0000
1000
0000
0101
0000
0001
0000
1010
0000
0100
0000
1001
0000
0010
,
0000
1100
0000
0001
0000
1010
0000
0001
0000
1100
0000
1100
0000
0010
0000
0001
,
0000
1100
0000
0001
0000
1010
0000
0001
0000
1100
0000
1100
0000
0010
0000
0001
,
0000
1010
0000
0001
0000
0100
0000
0001
0000
1100
0000
1100
0000
0001
0000
0010
,
0000
1001
0000
1000
0000
0110
0000
0100
0000
1001
0000
0100
0010
0001
1000
0100
,
0010
1001
0000
1001
0000
1001
0000
1001
0000
1001
0000
1001
0000
0110
0000
1001
,
0000
0101
0000
0101
0000
0101
0000
0101
0000
0101
0000
0101
0000
1010
0000
0101
,
0000
1010
0000
1010
0000
1010
0000
1010
0000
1010
0000
1010
0000
0101
0000
1010
,
0000
0101
0000
0101
0000
0101
0000
0101
0000
0101
0000
0101
0000
1001
0000
0110
,
0000
1011
0000
1011
0000
1011
0000
1011
0000
1011
0000
1011
0000
1100
0000
0011
,
0000
1110
0000
1110
0000
1110
0000
1110
0000
1110
0000
1110
0000
0011
0000
1100
,
0000
0111
0000
0111
0000
0111
0000
0110
0000
0110
0000
0110
0000
1101
0000
1101
,
0000
1101
0000
0110
0000
0110
0000
0110
0000
0101
0000
0101
0000
1010
0000
1010
,
0000
1101
0000
0000
0000
1010
0000
0201
0000
0000
0000
0010
0000
1001
0000
0000
,
0000
1301
0000
0000
0000
1010
0000
0102
0000
0000
0000
0100
1000
0100
0000
0000
,
0000
1013
0000
0000
0000
0101
0000
2010
0000
0100
0000
0001
0000
0101
0000
0010
,
0000
3100
0000
0010
0000
0001
0000
1010
0000
0001
0000
0010
0000
0100
0000
1000
,
0000
0011
0000
0100
0000
1010
0000
0102
0000
0000
0000
1000
0000
0110
0000
1000
,
0000
1013
0000
0000
0000
0101
0000
2010
0000
0001
0000
0010
0001
0110
0000
0001
,
0000
3101
0000
0000
0000
0010
0000
0102
0000
1000
0000
0100
0000
1010
0000
0010
,
0000
0103
0000
1000
0000
0111
0000
0001
0000
0110
0000
1000
0000
1010
0000
0101
,
0000
0000
0000
0000
0010
0000
0100
0000
1000
0000
0000
0000
0000
0000
0000
0000
0000
0000
0000
0000
0001
0000
0000
0000
0000
0000
0000
0100
1000
0000
0000
0000
0000
0000
0000
0000
0000
0000
0000
0000
0000
0000
0000
0000
0010
0000
0000
0000
0000
0000
0000
0000
0001
0000
0000
0000
0000
0000
0000
0000
0000
0000
0000
0000
,
0000
1000
0000
0010
0001
0010
1000
0100
0010
0001
0100
1000
0001
0010
0010
0001
,
0001
1100
0000
0010
0000
0101
0000
1000
0000
0110
0000
0110
0000
0001
0000
1000
,
0000
1100
0000
0010
0000
0101
0000
1000
0000
0110
0000
0110
0000
0001
0000
1010
,
0000
0101
0000
0010
0000
0001
0000
1000
0000
0110
0000
0110
0000
0001
0000
1010
,
0000
0101
0000
0100
0000
1010
0000
1000
0000
1001
0000
0100
0000
1001
0000
0010
,
0000
1100
0000
0010
0000
1001
0000
0010
0000
1100
0000
1100
0000
0010
0000
0001
,
0000
1101
0000
0010
0000
1001
0000
0010
0000
1100
0000
1100
0000
0010
0000
0001
,
0000
0110
0000
1000
0000
0101
0000
0010
0000
1100
0000
1100
0000
0010
0000
0001
,
0000
1010
0000
0100
0000
1001
0000
0010
0000
1001
0100
0010
1000
0100
0001
0100
,
0010
1001
0000
1000
0000
0101
0000
1000
0000
0011
0000
0011
0000
1000
0000
0001
,
0000
1001
0000
1000
0000
0101
0000
1000
0000
0011
0000
0011
0000
1000
0000
0001
,
0000
0110
0000
0100
0000
1001
0000
0100
0000
0011
0000
0011
0000
0100
0000
1000
,
0000
0101
0000
0010
0000
0101
0000
1000
0000
0011
0000
1000
0000
0011
0000
0100
,
0000
1001
0000
0100
0000
1010
0000
0001
0000
0110
0000
0110
0000
1000
0000
0001
,
0000
1001
0000
0100
0000
1010
0000
0001
0000
0110
0000
0110
0000
1000
0000
0001
,
0000
1001
0000
0100
0000
0011
0000
1000
0000
0110
0000
0110
0000
0001
0000
1000
,
0000
0101
0000
0001
0000
1010
0000
0010
0000
0101
0000
0100
0000
1001
0100
0010
,
0100
2002
0000
0000
0000
0000
0000
0000
0000
0000
0000
0000
0000
0000
0000
0000
,
0000
0000
0000
0000
0000
0000
0000
0000
0000
0000
0000
0000
0000
3113
0000
0000
,
0000
1101
0000
0010
0000
0101
0000
1000
0000
0011
0000
0011
0000
1000
0000
0100
,
0000
1001
0000
0010
0000
1001
0000
0100
0000
0011
0000
0011
0000
0100
0000
1010
,
0000
1101
0000
0010
0000
0101
0000
1000
0000
0101
0000
0101
0000
1000
0000
0101
,
0000
1001
0000
0010
0000
1001
0000
0100
0000
0011
0000
0011
0000
0100
0000
1010
,
0000
1001
0000
0100
0000
0011
0000
1000
0000
0011
0000
0011
0000
0100
0000
1000
,
0000
0010
0000
0001
0100
0001
0010
1000
0010
0100
1000
0001
0100
0010
0100
0001
,
0010
0000
0000
0000
,
0000
2002
0000
0000
0000
0000
0000
0000
0000
0000
0000
0100
0010
3103
0000
0000
,
0000
1011
0000
0010
0000
0101
0000
1000
0000
0110
0000
0110
0000
0001
0000
1000
,
0000
0101
0000
0100
0000
0011
0000
0010
0000
1101
0000
0001
0000
1010
0000
0100
,
0000
1101
0000
0010
0000
0101
0000
1000
0000
0110
0000
0110
0000
0001
0000
1010
,
0000
0101
0000
0010
0000
0001
0000
1000
0000
0110
0000
0110
0000
0001
0000
1010
,
0000
0111
0000
0100
0000
0100
0000
1011
0000
0001
0000
0001
0000
1100
0000
0010
,
0000
1101
0000
1000
0000
1000
0000
0111
0000
0001
0000
0001
0000
1010
0000
0001
,
0000
1101
0000
1000
0000
1000
0000
0111
0000
0001
0000
0001
0000
1100
0000
0001
,
0000
0111
0000
1000
0000
1000
0000
0110
0000
0001
0000
0001
1000
0001
1000
0010
,
0100
2022
0000
0000
0000
0000
0000
0000
0000
0000
0000
0000
0000
0000
0000
0000
,
0000
0000
0000
0000
0000
0000
0000
3033
0000
1111
0000
0000
0000
0000
0000
0000
;

//---------------dance-single - ----------------
#NOTES:
     dance-single:
     :
     Medium:
     1:
     0.000,0.000,0.000,0.000,0.000,0.000,0.000,0.000,0.000,0.000:
0000
0000
0000
0000
;

//---------------dance-single - ----------------
#NOTES:
     dance-single:
     :
     Easy:
     1:
     0.000,0.000,0.000,0.000,0.000,0.000,0.000,0.000,0.000,0.000:
0000
0000
0000
0000
;
